<?xml version="1.0" standalone="no"?>
<!DOCTYPE svg PUBLIC "-//W3C//DTD SVG 1.1//EN" "http://www.w3.org/Graphics/SVG/1.1/DTD/svg11.dtd">
<svg xmlns="http://www.w3.org/2000/svg">
<defs >
<font id="ZCOOLXiaoWei" horiz-adv-x="1014" ><font-face
    font-family="ZCOOL XiaoWei"
    units-per-em="1000"
    panose-1="0 0 5 0 0 0 0 0 0 0"
    ascent="880"
    descent="-120"
    alphabetic="0" />
<glyph unicode=" " glyph-name="space" horiz-adv-x="250" />
<glyph unicode="!" glyph-name="exclam" horiz-adv-x="234" d="M95 -14T79 2T63 41Q63 63 79 78T117 94Q139 94 155 79T171 41Q171 18 155 2T117 -14Q95 -14 79 2ZM70 660H164L146 155H88L70 660Z" />
<glyph unicode="&quot;" glyph-name="quotedbl" horiz-adv-x="366" d="M53 660H153L123 390H83L53 660ZM213 660H313L283 390H243L213 660Z" />
<glyph unicode="#" glyph-name="numbersign" horiz-adv-x="668" d="M161 175H31V235H175L211 415H91V475H224L266 675H331L289 475H434L476 675H541L499 475H636V415H486L449 235H576V175H436L401 0H336L371 175H226L191 0H126L161 175ZM385 235L421 415H276L239
235H385Z" />
<glyph unicode="$" glyph-name="dollar" horiz-adv-x="526" d="M158 -6T104 26T49 105V212H67Q82 123 123 78T236 24V294L166 336Q102 374 76 413T49 508Q49 583 100 629T236 678V735H276V676Q349 669 404 637T459 558V451H441Q426 540 386 584T276 636V383L361
333Q429 292 457 257T485 168Q485 83 430 33T276 -17V-80H236V-15Q158 -6 104 26ZM191 636T159 608T127 537Q127 496 151 470T236 407V638Q191 636 159 608ZM328 25T363 52T399 125Q399 167 373 198T289 263L276 270V23Q328 25 363 52Z" />
<glyph unicode="%" glyph-name="percent" horiz-adv-x="674" d="M109 395T71 430T32 530Q32 594 70 629T177 665Q245 665 283 630T322 530Q322 466 284 431T177 395Q109 395 71 430ZM262 430T262 530Q262 630 177 630Q92 630 92 530Q92 430 177 430Q262 430 262
530ZM429 -5T391 30T352 130Q352 194 390 229T497 265Q565 265 603 230T642 130Q642 66 604 31T497 -5Q429 -5 391 30ZM582 30T582 130Q582 230 497 230Q412 230 412 130Q412 30 497 30Q582 30 582 130ZM527 660H602L147 0H72L527 660Z" />
<glyph unicode="&amp;" glyph-name="ampersand" horiz-adv-x="616" d="M151 -20T97 24T42 140Q42 179 61 210T106 265T185 326Q152 356 133 382Q110 411 96 447T82 524Q82 596 130 638T262 680Q339 680 383 641T427 540Q427 496 408 462T359 400T281 340L482 120Q518
159 548 205Q563 229 572 245L592 230Q581 207 570 188Q540 137 503 97L592 0H482L442 43Q358 -20 252 -20Q151 -20 97 24ZM295 413T318 448T342 530Q342 588 318 616T262 645Q227 645 202 616T177 524Q177 489 192 457T225 402T250 375Q295 413 318 448ZM355 15T421
66L215 291Q177 258 157 225T137 150Q137 15 271 15Q355 15 421 66Z" />
<glyph unicode="&apos;" glyph-name="quotesingle" horiz-adv-x="206" d="M53 660H153L123 390H83L53 660Z" />
<glyph unicode="(" glyph-name="parenleft" horiz-adv-x="309" d="M158 -115T96 -10T34 240Q34 384 96 489T284 690L294 675Q124 526 124 240Q124 -46 294 -195L284 -210Q158 -115 96 -10Z" />
<glyph unicode=")" glyph-name="parenright" horiz-adv-x="309" d="M185 -46T185 240Q185 526 15 675L25 690Q151 595 213 490T275 240Q275 96 213 -9T25 -210L15 -195Q185 -46 185 240Z" />
<glyph unicode="*" glyph-name="asterisk" horiz-adv-x="424" d="M202 480L87 375L47 445L192 495L47 545L87 615L202 510L172 660H252L222 510L337 615L377 545L232 495L377 445L337 375L222 480L252 330H172L202 480Z" />
<glyph unicode="+" glyph-name="plus" horiz-adv-x="530" d="M235 300H35V360H235V560H295V360H495V300H295V100H235V300Z" />
<glyph unicode="," glyph-name="comma" horiz-adv-x="237" d="M101 -113T121 -80T141 -5Q127 -15 111 -15Q88 -15 72 1T56 40Q56 66 73 83T117 100Q144 100 162 79T181 26Q181 -95 71 -155L61 -140Q101 -113 121 -80Z" />
<glyph unicode="-" glyph-name="hyphen" horiz-adv-x="387" d="M66 300H321V230H66V300Z" />
<glyph unicode="." glyph-name="period" horiz-adv-x="220" d="M88 -14T72 2T56 41Q56 63 72 79T110 95Q133 95 148 79T164 41Q164 18 148 2T110 -14Q88 -14 72 2Z" />
<glyph unicode="/" glyph-name="slash" horiz-adv-x="440" d="M344 660H417L96 0H23L344 660Z" />
<glyph unicode="0" glyph-name="zero" horiz-adv-x="584" d="M52 -20T52 330Q52 680 292 680Q532 680 532 330Q532 -20 292 -20Q52 -20 52 330ZM346 20T376 53T419 153T432 330Q432 439 420 506T377 607T292 640Q238 640 208 607T165 507T152 330Q152 221 164
154T207 53T292 20Q346 20 376 53Z" />
<glyph unicode="1" glyph-name="one" horiz-adv-x="305" d="M129 560L32 497L14 520L169 660H219V0H129V560Z" />
<glyph unicode="2" glyph-name="two" horiz-adv-x="530" d="M94 101T122 127Q221 222 267 272T339 375T366 490Q366 562 329 601T236 640Q175 640 131 596T71 470H51Q51 520 55 549T75 600Q103 634 155 657T266 680Q345 680 405 639T466 490Q466 427 437 372T361
270T229 147Q141 68 111 40H336Q397 40 429 66T461 145H481V80Q481 0 396 0H41V50Q94 101 122 127Z" />
<glyph unicode="3" glyph-name="three" horiz-adv-x="530" d="M194 -20T140 7T40 87L56 105Q95 62 140 41T241 20Q306 20 348 61T391 185Q391 235 372 270T323 322T261 340Q219 340 199 337T141 325L115 367L386 620H201Q140 620 108 594T76 515H56V580Q56 660
141 660H459V620L191 370Q230 380 281 380Q321 380 369 364T454 304T491 185Q491 105 454 59T365 -3T266 -20Q194 -20 140 7Z" />
<glyph unicode="4" glyph-name="four" horiz-adv-x="546" d="M338 170H18V210L348 660H428V210H518V170H428V0H338V170ZM338 210V564L78 210H338Z" />
<glyph unicode="5" glyph-name="five" horiz-adv-x="530" d="M186 -20T136 6T42 85L61 102Q99 60 143 40T242 20Q307 20 349 61T392 185Q392 262 351 301T232 340Q187 340 147 335L107 330L67 370L77 660H452V620H159L150 375L182 377Q239 380 252 380Q348 380
420 337T492 185Q492 106 454 61T362 -2T257 -20Q186 -20 136 6Z" />
<glyph unicode="6" glyph-name="six" horiz-adv-x="537" d="M164 -20T108 67T52 330Q52 505 113 592T302 680Q377 680 457 650L452 630Q390 640 322 640Q234 640 191 573T147 385Q177 406 212 418T297 430Q399 430 448 371T497 205Q497 145 473 94T400 12T282
-20Q164 -20 108 67ZM337 20T369 75T402 205Q402 390 267 390Q231 390 203 378T147 340Q147 175 183 98T282 20Q337 20 369 75Z" />
<glyph unicode="7" glyph-name="seven" horiz-adv-x="474" d="M171 620Q110 620 78 594T46 515H26V580Q26 660 111 660H461V620L211 0H121L371 620H171Z" />
<glyph unicode="8" glyph-name="eight" horiz-adv-x="554" d="M177 -20T112 22T47 150Q47 218 90 260T207 335Q142 373 107 411T72 510Q72 601 128 640T277 680Q368 680 425 642T482 520Q482 465 447 424T357 355Q405 326 435 302T486 243T507 160Q507 68 443
24T277 -20Q177 -20 112 22ZM348 406T367 437T387 520Q387 585 355 612T277 640Q232 640 200 614T167 530Q167 448 312 380Q348 406 367 437ZM333 20T372 51T412 140Q412 180 391 211T338 264T252 315Q200 289 171 253T142 150Q142 86 181 53T277 20Q333 20 372
51Z" />
<glyph unicode="9" glyph-name="nine" horiz-adv-x="536" d="M159 -20T79 10L84 30Q146 20 214 20Q302 20 345 87T389 275Q359 254 324 242T239 230Q137 230 88 289T39 455Q39 515 63 566T136 648T254 680Q372 680 428 593T484 330Q484 155 423 68T234 -20Q159
-20 79 10ZM305 270T333 282T389 320Q389 485 353 562T254 640Q199 640 167 585T134 455Q134 270 269 270Q305 270 333 282Z" />
<glyph unicode=":" glyph-name="colon" horiz-adv-x="241" d="M99 353T83 368T67 407Q67 429 83 445T121 461Q144 461 159 445T175 407Q175 384 160 369T121 353Q99 353 83 368ZM98 -14T82 2T66 41Q66 63 82 79T120 95Q143 95 159 79T175 41Q175 18 159 2T120
-14Q98 -14 82 2Z" />
<glyph unicode=";" glyph-name="semicolon" horiz-adv-x="258" d="M108 354T92 369T76 408Q76 430 92 445T131 461Q153 461 169 446T185 408Q185 385 169 370T131 354Q108 354 92 369ZM112 -107T131 -77T151 0Q136 -15 116 -15Q93 -15 80 0T66 40Q66 63 84 81T131
100Q158 100 174 79T191 20Q191 -33 166 -73T81 -154L70 -140Q112 -107 131 -77Z" />
<glyph unicode="&lt;" glyph-name="less" horiz-adv-x="618" d="M30 320V350L550 575V515L133 335L550 155V95L30 320Z" />
<glyph unicode="=" glyph-name="equal" horiz-adv-x="657" d="M66 450H591V390H66V450ZM66 270H591V210H66V270Z" />
<glyph unicode="&gt;" glyph-name="greater" horiz-adv-x="618" d="M68 155L485 335L68 515V575L588 350V320L68 95V155Z" />
<glyph unicode="?" glyph-name="question" horiz-adv-x="478" d="M207 212T225 249T279 331Q313 374 329 407T346 490Q346 562 309 601T216 640Q154 640 110 596T50 470H30Q30 520 34 549T55 600Q83 634 135 657T246 680Q325 680 385 639T446 490Q446 448 431
415T395 358T338 300Q293 260 270 229T246 156H206Q207 212 225 249ZM203 -13T188 3T172 41Q172 64 187 80T226 96Q249 96 265 80T281 41Q281 19 265 3T226 -13Q203 -13 188 3Z" />
<glyph unicode="@" glyph-name="at" horiz-adv-x="856" d="M314 -180T226 -131T89 16T40 250Q40 387 89 484T226 630T430 680Q545 680 633 632T771 491T820 270Q820 146 772 76T625 5Q544 5 520 60H515Q497 37 462 21T375 5Q343 5 310 18T254 63T230 145Q230 221
300 253T485 285H515Q515 382 488 418T410 455Q365 455 338 436T300 370H255Q255 404 259 423T280 460Q298 478 339 486T430 495Q511 495 558 452T605 285V105Q605 80 617 63T655 45Q688 45 716 72T762 151T780 270Q780 388 737 471T615 597T430 640Q323 640 245
596T123 465T80 250Q80 123 123 36T244 -96T430 -140Q527 -140 603 -119T740 -55L760 -85Q624 -180 430 -180Q314 -180 226 -131ZM453 50T475 66T515 110V245H485Q411 245 368 218T325 145Q325 99 352 75T420 50Q453 50 475 66Z" />
<glyph unicode="A" glyph-name="A" horiz-adv-x="635" d="M574 -5T527 21T452 125L427 190H147L67 0H22L302 660H332L552 125Q577 67 599 46T662 20V0Q644 -5 622 -5Q574 -5 527 21ZM407 230L287 520L162 230H407Z" />
<glyph unicode="B" glyph-name="B" horiz-adv-x="622" d="M106 591T92 615T36 640H16V660H276Q385 660 465 624T546 485Q546 438 514 400T416 340Q508 325 544 286T581 180Q581 79 502 40T306 0H106V540Q106 591 92 615ZM332 355T368 370T428 416T451 490Q451
535 424 565T356 610T271 625Q236 625 196 615V355H291Q332 355 368 370ZM382 35T431 71T481 175Q481 243 433 279T291 315H196V49Q244 35 291 35Q382 35 431 71Z" />
<glyph unicode="C" glyph-name="C" horiz-adv-x="665" d="M261 -20T191 25T82 147T44 320Q44 418 85 501T198 632T354 680Q434 680 494 658T584 600Q601 579 605 545T609 450H589Q570 547 519 593T384 640Q276 640 210 564T144 320Q144 241 169 173T249 63T384
20Q457 20 511 55T609 160L629 145Q583 55 516 18T354 -20Q261 -20 191 25Z" />
<glyph unicode="D" glyph-name="D" horiz-adv-x="715" d="M106 591T92 615T36 640H16V660H278Q472 660 571 574T671 334Q671 235 629 160T505 42T304 0H106V540Q106 591 92 615ZM375 35T434 71T528 174T562 330Q562 417 529 484T435 588T299 625Q251 625 199 609V48Q255
35 301 35Q375 35 434 71Z" />
<glyph unicode="E" glyph-name="E" horiz-adv-x="590" d="M106 591T92 615T36 640H16V660H442Q527 660 527 580V505H507Q507 620 382 620H196V360H466V320H196V40H371Q440 40 479 65T541 150L561 145L526 50Q508 0 451 0H106V540Q106 591 92 615Z" />
<glyph unicode="F" glyph-name="F" horiz-adv-x="527" d="M106 591T92 615T36 640H16V660H415Q500 660 500 580V505H480Q480 620 355 620H196V355H422V315H196V0H106V540Q106 591 92 615Z" />
<glyph unicode="G" glyph-name="G" horiz-adv-x="720" d="M286 -20T209 28T88 158T44 340Q44 435 82 512T190 635T354 680Q440 680 502 658T594 600Q610 580 614 547T619 465H599Q580 553 527 596T384 640Q303 640 249 598T170 487T144 340Q144 171 210 96T384
20Q435 20 471 29T539 55V229Q539 263 550 288T597 329T704 346V326Q659 326 644 303T629 231V43Q575 10 516 -5T384 -20Q286 -20 209 28Z" />
<glyph unicode="H" glyph-name="H" horiz-adv-x="693" d="M106 591T92 615T36 640H16V660H106Q143 660 161 651T188 616T196 540V360H496V660H586V120Q586 69 600 45T656 20H676V0H586Q549 0 531 9T504 44T496 120V320H196V0H106V540Q106 591 92 615Z" />
<glyph unicode="I" glyph-name="I" horiz-adv-x="285" d="M142 0T124 9T97 44T89 120V660H179V120Q179 69 193 45T249 20H269V0H179Q142 0 124 9Z" />
<glyph unicode="J" glyph-name="J" horiz-adv-x="261" d="M39 -117T62 -66T86 78V660H176V78Q176 0 160 -46T103 -115T-9 -137V-117Q39 -117 62 -66Z" />
<glyph unicode="K" glyph-name="K" horiz-adv-x="677" d="M574 -10T523 15T406 110L196 330V0H106V540Q106 591 92 615T36 640H16V660H106Q143 660 161 651T188 616T196 540V345L406 555L426 576Q454 605 473 621T518 649T576 660H626V635Q584 635 553 621T481
565L286 370L516 130Q560 85 605 55T686 19V0Q656 -10 621 -10Q574 -10 523 15Z" />
<glyph unicode="L" glyph-name="L" horiz-adv-x="558" d="M106 591T92 615T36 640H16V660H106Q143 660 161 651T188 616T196 540V40H551V0H106V540Q106 591 92 615Z" />
<glyph unicode="M" glyph-name="M" horiz-adv-x="855" d="M769 -45T729 -23T673 45T656 170V555L406 0H386L126 565V0H86V660H181L421 140L656 660H746V170Q746 77 769 26T841 -25V-45Q769 -45 729 -23Z" />
<glyph unicode="N" glyph-name="N" horiz-adv-x="685" d="M150 0H110V540Q110 588 90 614T20 640H10V660H75Q121 660 153 645T210 600L560 165V660H600V-10H580L150 525V0Z" />
<glyph unicode="O" glyph-name="O" horiz-adv-x="712" d="M263 -20T193 26T84 152T46 330Q46 428 84 508T192 634T356 680Q449 680 519 634T628 508T666 330Q666 232 628 152T520 26T356 -20Q263 -20 193 26ZM421 20T468 58T541 165T566 330Q566 425 541 494T469
602T356 640Q291 640 244 602T171 495T146 330Q146 235 171 166T243 58T356 20Q421 20 468 58Z" />
<glyph unicode="P" glyph-name="P" horiz-adv-x="552" d="M106 591T92 615T36 640H16V660H276Q372 660 449 619T526 460Q526 382 486 340T397 284T306 270H196V0H106V540Q106 591 92 615ZM303 305T339 321T400 374T426 465Q426 520 401 556T339 608T271 625Q236
625 196 615V315Q236 305 271 305Q303 305 339 321Z" />
<glyph unicode="Q" glyph-name="Q" horiz-adv-x="714" d="M558 -205T456 -160T267 -7Q165 23 106 115T47 330Q47 428 85 508T193 634T357 680Q450 680 520 634T629 508T667 330Q667 204 606 112T439 -9Q454 -57 494 -97T584 -161T677 -185V-205Q558 -205 456 -160ZM422
20T469 58T542 165T567 330Q567 425 542 494T470 602T357 640Q292 640 245 602T172 495T147 330Q147 235 172 166T244 58T357 20Q422 20 469 58Z" />
<glyph unicode="R" glyph-name="R" horiz-adv-x="595" d="M493 -10T454 21T366 135L266 305H196V0H106V540Q106 591 92 615T36 640H16V660H276Q371 660 448 623T526 480Q526 347 366 310L471 135Q508 73 537 49T606 20V0Q597 -4 581 -7T546 -10Q493 -10 454 21ZM302
340T338 355T400 402T426 480Q426 529 401 561T339 609T271 625Q236 625 196 615V350Q236 340 271 340Q302 340 338 355Z" />
<glyph unicode="S" glyph-name="S" horiz-adv-x="533" d="M227 -17T174 -2T88 41T54 105V212H72Q89 112 138 68T273 23Q327 23 365 50T404 125Q404 167 378 198T294 263L171 336Q107 374 81 413T54 508Q54 585 107 631T248 678Q299 678 349 664T431 622T464 558V451H446Q429
551 382 594T248 638Q202 638 167 610T132 537Q132 496 157 469T243 406L366 333Q434 292 462 257T490 168Q490 84 434 34T282 -17Q227 -17 174 -2Z" />
<glyph unicode="T" glyph-name="T" horiz-adv-x="583" d="M166 620Q41 620 41 505H21V580Q21 660 106 660H571V620H346V0H256V620H166Z" />
<glyph unicode="U" glyph-name="U" horiz-adv-x="687" d="M258 -10T202 22T123 119T99 285V540Q99 591 85 615T29 640H9V660H99Q136 660 154 651T181 616T189 540V255Q189 144 230 87T366 30Q442 30 486 57T550 139T569 285V660H609V285Q609 181 587 118T510 22T354
-10Q258 -10 202 22Z" />
<glyph unicode="V" glyph-name="V" horiz-adv-x="640" d="M56 601T34 622T-29 648V668Q-24 668 -15 669T5 670Q55 670 101 645T179 543L350 140L409 277Q451 374 570 660H618L331 -10H313L81 543Q56 601 34 622Z" />
<glyph unicode="W" glyph-name="W" horiz-adv-x="866" d="M58 601T36 622T-32 648V668Q-27 668 -18 669T2 670Q57 670 101 645T173 543L307 157L414 474L390 543Q370 601 348 622T280 648V668Q285 668 294 669T314 670Q369 670 413 645T485 543L619 157L790 660H833L604
-10H584L436 411L292 -10H272L78 543Q58 601 36 622Z" />
<glyph unicode="X" glyph-name="X" horiz-adv-x="667" d="M151 530Q127 565 109 585T62 622T-9 640V660H111Q155 660 185 632T251 550L351 400L551 660H601L376 365L536 130Q567 84 602 54T681 20V0H576Q533 0 500 30T436 110L316 290L91 0H41L291 325L151 530Z" />
<glyph unicode="Y" glyph-name="Y" horiz-adv-x="628" d="M120 530Q94 567 76 588T34 623T-25 640V660H65Q115 660 149 631T215 550L360 325L569 660H614L380 280V0H290V273L120 530Z" />
<glyph unicode="Z" glyph-name="Z" horiz-adv-x="591" d="M439 620H199Q74 620 74 505H54V580Q54 660 139 660H574L149 40H559V0H24V20L439 620Z" />
<glyph unicode="[" glyph-name="bracketleft" horiz-adv-x="316" d="M75 680H290V640H155V-160H290V-200H75V680Z" />
<glyph unicode="\" glyph-name="backslash" horiz-adv-x="440" d="M23 660H96L417 0H344L23 660Z" />
<glyph unicode="]" glyph-name="bracketright" horiz-adv-x="316" d="M26 -160H161V640H26V680H241V-200H26V-160Z" />
<glyph unicode="^" glyph-name="asciicircum" horiz-adv-x="490" d="M235 680H255L470 330H403L245 587L87 330H20L235 680Z" />
<glyph unicode="_" glyph-name="underscore" horiz-adv-x="432" d="M16 0H416V-60H16V0Z" />
<glyph unicode="`" glyph-name="grave" horiz-adv-x="200" d="M20 680H120L180 480H130L20 680Z" />
<glyph unicode="a" glyph-name="a" horiz-adv-x="481" d="M152 -10T119 3T63 48T39 130Q39 206 109 238T294 270H324Q324 368 297 404T219 440Q174 440 147 421T109 355H64Q64 389 68 408T89 445Q107 463 148 471T239 480Q320 480 367 437T414 270V0H364L329 45H324Q306
22 271 6T184 -10Q152 -10 119 3ZM262 35T284 51T324 95V230H294Q220 230 177 203T134 130Q134 84 161 60T229 35Q262 35 284 51Z" />
<glyph unicode="b" glyph-name="b" horiz-adv-x="523" d="M246 -10T213 6T162 45H157L122 0H72V540Q72 591 58 615T2 640H-18V660H72Q109 660 127 651T154 616T162 540V450Q191 464 220 472T287 480Q380 480 428 411T477 235Q477 129 430 60T297 -10Q246 -10 213
6ZM324 30T353 86T382 235Q382 328 352 384T257 440Q236 440 214 432T162 410V90Q180 63 204 47T267 30Q324 30 353 86Z" />
<glyph unicode="c" glyph-name="c" horiz-adv-x="483" d="M193 -10T144 22T70 110T45 235Q45 304 69 359T143 447T265 480Q375 480 410 445Q427 428 431 404T435 315H415Q411 377 376 408T285 440Q213 440 177 383T140 235Q140 144 176 87T285 30Q336 30 369 49T430
110L450 95Q417 39 372 15T265 -10Q193 -10 144 22Z" />
<glyph unicode="d" glyph-name="d" horiz-adv-x="524" d="M140 -10T94 59T47 235Q47 342 95 411T237 480Q275 480 304 472T362 450V540Q362 591 348 615T292 640H272V660H362Q399 660 417 651T444 616T452 540V0H402L367 45H362Q340 20 311 5T227 -10Q140 -10
94 59ZM298 30T319 45T362 90V410Q332 424 310 432T267 440Q203 440 173 384T142 235Q142 143 171 87T257 30Q298 30 319 45Z" />
<glyph unicode="e" glyph-name="e" horiz-adv-x="488" d="M187 -10T140 22T69 110T45 235Q45 303 69 359T138 447T245 480Q346 480 395 424T445 260L443 220H140Q140 136 176 83T275 30Q322 30 354 50T415 110L435 95Q402 40 358 15T255 -10Q187 -10 140 22ZM350
348T324 394T245 440Q215 440 191 417T154 352T140 260H350Q350 348 324 394Z" />
<glyph unicode="f" glyph-name="f" horiz-adv-x="337" d="M21 430V470H91V500Q91 670 266 670Q329 670 351 655Q368 642 386 610L356 585Q326 630 261 630Q181 630 181 500V470H321V430H181V0H91V430H21Z" />
<glyph unicode="g" glyph-name="g" horiz-adv-x="492" d="M145 -200T86 -163T26 -45Q26 1 57 35T136 85Q96 107 96 145Q96 165 105 176T131 200Q99 216 78 250T56 330Q56 480 246 480H431V455L366 445V440Q397 424 416 396T436 330Q436 180 246 180Q141 180 141
145Q141 110 246 110Q343 110 404 72T466 -45Q466 -126 407 -163T246 -200Q145 -200 86 -163ZM291 215T318 242T346 330Q346 387 319 416T246 445Q201 445 174 418T146 330Q146 270 173 243T246 215Q291 215 318 242ZM306 -160T341 -132T376 -45Q376 55 256 70L201
75Q160 59 138 30T116 -45Q116 -103 151 -131T246 -160Q306 -160 341 -132Z" />
<glyph unicode="h" glyph-name="h" horiz-adv-x="529" d="M72 591T58 615T2 640H-18V660H72Q109 660 127 651T154 616T162 540V430Q183 451 216 465T292 480Q367 480 414 440T462 300V0H372V300Q372 370 341 402T262 435Q209 435 162 382V0H72V540Q72 591 58 615Z" />
<glyph unicode="i" glyph-name="i" horiz-adv-x="246" d="M102 530T86 549T69 594Q69 615 81 627T115 639Q138 639 154 620T171 575Q171 554 159 542T125 530Q102 530 86 549ZM87 401T73 425T17 450H-3V470H87Q124 470 142 461T169 426T177 350V0H87V350Q87 401 73 425Z" />
<glyph unicode="j" glyph-name="j" horiz-adv-x="246" d="M102 530T86 549T69 594Q69 615 81 627T115 639Q138 639 154 620T171 575Q171 554 159 542T125 530Q102 530 86 549ZM40 -170T63 -119T87 25V350Q87 401 73 425T17 450H-3V470H87Q124 470 142 461T169
426T177 350V25Q177 -53 161 -99T104 -168T-8 -190V-170Q40 -170 63 -119Z" />
<glyph unicode="k" glyph-name="k" horiz-adv-x="485" d="M342 -10T282 70L162 230V0H72V540Q72 591 58 615T2 640H-18V660H72Q109 660 127 651T154 616T162 540V245L287 405Q313 437 342 453T417 470H447V445Q420 445 395 434T352 400L242 260L367 100Q396 62
421 43T477 19V0Q455 -10 427 -10Q342 -10 282 70Z" />
<glyph unicode="l" glyph-name="l" horiz-adv-x="242" d="M76 591T62 615T6 640H-14V660H76Q113 660 131 651T158 616T166 540V0H76V540Q76 591 62 615Z" />
<glyph unicode="m" glyph-name="m" horiz-adv-x="785" d="M87 401T73 425T17 450H-3V470H87Q124 470 143 460T172 430H177Q198 451 231 465T307 480Q349 480 379 465T427 410Q453 443 493 461T577 480Q641 480 679 440T717 300V0H627V300Q627 372 607 403T547
435Q519 435 488 415T442 370Q447 355 447 300V0H357V300Q357 372 337 403T277 435Q224 435 177 382V0H87V350Q87 401 73 425Z" />
<glyph unicode="n" glyph-name="n" horiz-adv-x="544" d="M87 401T73 425T17 450H-3V470H87Q124 470 143 460T172 430H177Q198 451 231 465T307 480Q382 480 429 440T477 300V0H387V300Q387 370 356 402T277 435Q224 435 177 382V0H87V350Q87 401 73 425Z" />
<glyph unicode="o" glyph-name="o" horiz-adv-x="530" d="M197 -10T147 22T71 111T45 235Q45 303 71 359T147 447T265 480Q333 480 383 448T459 359T485 235Q485 167 459 111T383 23T265 -10Q197 -10 147 22ZM302 30T330 57T374 131T390 235Q390 292 375 339T331
413T265 440Q228 440 200 413T156 339T140 235Q140 178 155 131T199 57T265 30Q302 30 330 57Z" />
<glyph unicode="p" glyph-name="p" horiz-adv-x="538" d="M87 401T73 425T17 450H-3V470H87Q125 470 144 460T172 425H177Q195 448 228 464T312 480Q398 480 445 411T492 235Q492 128 444 59T302 -10Q264 -10 235 -2T177 20V-190H87V350Q87 401 73 425ZM336 30T366
86T397 235Q397 327 368 383T282 440Q215 440 177 380V60Q207 46 229 38T272 30Q336 30 366 86Z" />
<glyph unicode="q" glyph-name="q" horiz-adv-x="524" d="M333 6T304 -2T237 -10Q144 -10 96 59T47 235Q47 342 93 411T227 480Q278 480 311 464T362 425H367L402 470H452V-190H362V20Q333 6 304 -2ZM288 30T310 38T362 60V380Q341 408 318 424T257 440Q200 440
171 384T142 235Q142 142 172 86T267 30Q288 30 310 38Z" />
<glyph unicode="r" glyph-name="r" horiz-adv-x="397" d="M80 401T66 425T10 450H0V470H80Q118 470 137 460T165 425H170Q188 448 218 464T290 480Q330 480 350 465Q367 452 385 420L345 390Q334 405 313 412T265 420Q235 420 210 407T170 370V0H80V350Q80 401 66 425Z" />
<glyph unicode="s" glyph-name="s" horiz-adv-x="446" d="M114 -10T74 30Q57 47 53 68T49 135H69Q78 85 112 58T209 30Q264 30 291 49T319 100Q319 129 298 150T229 190L169 215Q109 239 79 271T49 350Q49 411 95 445T214 480Q324 480 364 440Q381 423 385 402T389
335H369Q361 385 327 412T234 440Q187 440 161 421T134 370Q134 318 214 285L274 260Q342 232 373 201T404 120Q404 59 355 25T229 -10Q114 -10 74 30Z" />
<glyph unicode="t" glyph-name="t" horiz-adv-x="338" d="M155 -10T123 22T91 120V430H21V470H91V560L141 620H181V470H301V430H181V120Q181 30 251 30Q275 30 291 35T326 50L336 30Q313 13 285 2T211 -10Q155 -10 123 22Z" />
<glyph unicode="u" glyph-name="u" horiz-adv-x="535" d="M168 -10T121 30T73 170V350Q73 401 59 425T3 450H-7V470H73Q110 470 128 461T155 426T163 350V170Q163 100 194 68T273 35Q326 35 373 88V470H463V0H413L378 40H373Q352 19 319 5T243 -10Q168 -10 121 30Z" />
<glyph unicode="v" glyph-name="v" horiz-adv-x="497" d="M75 411T53 433T-5 458V478Q0 478 9 479T29 480Q82 480 125 454T199 355L289 140L429 470H479L274 -10H254L99 355Q75 411 53 433Z" />
<glyph unicode="w" glyph-name="w" horiz-adv-x="749" d="M77 411T55 433T-5 458V478Q0 478 10 479T30 480Q84 480 125 453T195 355L280 145L365 360Q341 413 320 434T265 458V478Q270 478 280 479T300 480Q354 480 395 453T465 355L550 145L680 470H730L535 -10H515L390
300L265 -10H245L100 355Q77 411 55 433Z" />
<glyph unicode="x" glyph-name="x" horiz-adv-x="488" d="M111 370Q69 443 8 450V470H93Q126 470 155 449T206 390L268 285L398 470H448L288 245L375 100Q416 28 483 20V0H393Q360 0 331 21T280 80L218 185L88 0H38L198 225L111 370Z" />
<glyph unicode="y" glyph-name="y" horiz-adv-x="514" d="M154 -170T185 -148T240 -65L260 -10L100 380Q72 452 -10 460V480H75Q162 480 195 400L309 123L435 470H485L290 -65Q261 -144 226 -172T135 -200H105V-170Q154 -170 185 -148Z" />
<glyph unicode="z" glyph-name="z" horiz-adv-x="466" d="M304 430H189Q127 430 96 407T64 340H44V390Q44 470 129 470H434L164 40H434V0H44V19L304 430Z" />
<glyph unicode="{" glyph-name="braceleft" horiz-adv-x="304" d="M188 -189T150 -145T111 -30V110Q111 156 88 186T11 225V255Q64 263 87 293T111 370V510Q111 579 149 623T276 690V660Q226 645 209 621T191 550V380Q191 321 166 288T86 240Q140 225 165 192T191
100V-70Q191 -117 208 -141T276 -180V-210Q188 -189 150 -145Z" />
<glyph unicode="|" glyph-name="bar" horiz-adv-x="240" d="M75 680H165V-190H75V680Z" />
<glyph unicode="}" glyph-name="braceright" horiz-adv-x="304" d="M78 -166T95 -142T113 -70V100Q113 159 138 192T218 240Q164 255 139 288T113 380V550Q113 597 96 621T28 660V690Q116 667 154 623T193 510V370Q193 324 216 294T293 255V225Q240 217 217 187T193
110V-30Q193 -100 155 -144T28 -210V-180Q78 -166 95 -142Z" />
<glyph unicode="~" glyph-name="asciitilde" horiz-adv-x="629" d="M415 180T381 191T300 223Q259 242 232 251T180 260Q143 260 122 241T100 190H60Q60 260 95 295T180 330Q215 330 249 319T330 287Q371 268 398 259T450 250Q487 250 508 269T530 320H570Q570
250 535 215T450 180Q415 180 381 191Z" />
<glyph unicode="&#xa0;" glyph-name="uni00A0" horiz-adv-x="250" />
<glyph unicode="&#xa2;" glyph-name="cent" horiz-adv-x="483" d="M143 -2T92 65T40 235Q40 337 91 404T240 480V520H280V480Q323 480 355 471T405 445Q422 428 426 404T430 315H410Q406 377 371 408T280 440V30Q331 30 364 49T425 110L445 95Q415 44 375 19T280
-10V-50H240V-10Q143 -2 92 65ZM189 419T162 366T135 235Q135 158 162 104T240 35V435Q189 419 162 366Z" />
<glyph unicode="&#xa3;" glyph-name="sterling" horiz-adv-x="528" d="M75 38T96 82T117 220V320H47V360H117V460Q117 583 164 626T292 670Q341 670 382 662T442 635Q459 618 463 599T467 545H422Q411 592 384 611T312 630Q261 630 234 594T207 460V360H347V320H207V220Q207
150 193 107T152 40H337Q462 40 462 155H482V80Q482 0 397 0H32V25Q75 38 96 82Z" />
<glyph unicode="&#xa4;" glyph-name="currency" horiz-adv-x="576" d="M498 255T462 205L524 143L482 101L420 163Q369 126 304 126Q239 126 189 162L128 101L86 143L147 204Q110 255 110 320Q110 385 147 436L86 497L128 539L189 478Q239 514 304 514Q369 514
420 477L482 539L524 497L462 435Q498 385 498 320Q498 255 462 205ZM176 269T213 234T304 198Q358 198 395 233T432 320Q432 371 395 406T304 442Q250 442 213 407T176 320Q176 269 213 234Z" />
<glyph unicode="&#xa5;" glyph-name="yen" horiz-adv-x="687" d="M244 145V185H339V225H244V265H339V273L169 530Q143 567 125 588T83 623T24 640V660H114Q164 660 198 631T264 550L409 325L618 660H663L429 280V265H524V225H429V185H524V145H429V0H339V145H244Z" />
<glyph unicode="&#xa6;" glyph-name="brokenbar" horiz-adv-x="246" d="M78 680H168V330H78V680ZM78 160H168V-190H78V160Z" />
<glyph unicode="&#xa8;" glyph-name="dieresis" horiz-adv-x="310" d="M47 690T34 703T20 740Q20 763 33 776T70 790Q93 790 106 777T120 740Q120 717 107 704T70 690Q47 690 34 703ZM217 690T204 703T190 740Q190 763 203 776T240 790Q263 790 276 777T290 740Q290
717 277 704T240 690Q217 690 204 703Z" />
<glyph unicode="&#xa9;" glyph-name="copyright" horiz-adv-x="790" d="M294 -25T213 21T86 148T40 330Q40 431 86 512T213 639T395 685Q496 685 577 639T704 512T750 330Q750 229 704 148T577 21T395 -25Q294 -25 213 21ZM486 15T558 55T670 167T710 330Q710
421 670 493T558 605T395 645Q304 645 232 605T120 493T80 330Q80 239 120 167T232 55T395 15Q486 15 558 55ZM335 105T290 134T220 213T195 327Q195 391 222 445T295 530T395 562Q446 562 486 547T544 510Q555 497 558 474T561 412H548Q525 536 415 536Q345 536
302 487T259 327Q259 246 298 189T415 132Q463 132 498 154T561 223L574 213Q543 154 500 130T395 105Q335 105 290 134Z" />
<glyph unicode="&#xac;" glyph-name="logicalnot" horiz-adv-x="654" d="M528 230H68V290H588V130H528V230Z" />
<glyph unicode="&#xaf;" glyph-name="overscore" horiz-adv-x="455" d="M100 620H355V560H100V620Z" />
<glyph unicode="&#xb0;" glyph-name="degree" horiz-adv-x="412" d="M162 360T125 381T67 439T46 520Q46 564 67 601T125 659T206 680Q250 680 287 659T345 601T366 520Q366 476 345 439T287 381T206 360Q162 360 125 381ZM248 415T277 445T306 520Q306 565 277
595T206 625Q164 625 135 595T106 520Q106 475 135 445T206 415Q248 415 277 445Z" />
<glyph unicode="&#xb1;" glyph-name="plusminus" horiz-adv-x="574" d="M57 120H257V300H57V360H257V560H317V360H517V300H317V120H517V60H57V120Z" />
<glyph unicode="&#xd7;" glyph-name="multiply" horiz-adv-x="469" d="M51 192L192 333L51 475L93 517L235 375L376 517L418 474L277 333L418 191L376 149L234 291L93 149L51 192Z" />
<glyph unicode="&#xf7;" glyph-name="divide" horiz-adv-x="564" d="M263 425T250 438T237 470Q237 489 250 502T282 515Q301 515 314 502T327 470Q327 451 314 438T282 425Q263 425 250 438ZM263 145T250 158T237 190Q237 209 250 222T282 235Q301 235 314 222T327
190Q327 171 314 158T282 145Q263 145 250 158ZM62 360H502V300H62V360Z" />
<glyph unicode="&#x2013;" glyph-name="endash" horiz-adv-x="610" d="M70 290H540V230H70V290Z" />
<glyph unicode="&#x2014;" glyph-name="emdash" horiz-adv-x="872" d="M66 290H806V230H66V290Z" />
<glyph unicode="&#x2018;" glyph-name="quoteleft" horiz-adv-x="1024" d="M884 425T867 443T849 495Q849 618 959 680L969 665Q929 638 909 606T889 530L919 540Q942 540 958 524T974 485Q974 459 957 442T914 425Q884 425 867 443Z" />
<glyph unicode="&#x2019;" glyph-name="quoteright" horiz-adv-x="1024" d="M102 467T122 499T142 575L112 565Q89 565 73 581T57 620Q57 646 74 663T117 680Q147 680 164 662T182 610Q182 487 72 425L62 440Q102 467 122 499Z" />
<glyph unicode="&#x201a;" glyph-name="quotesinglbase" horiz-adv-x="237" d="M101 -113T121 -81T141 -5L111 -15Q88 -15 72 1T56 40Q56 66 73 83T116 100Q146 100 163 82T181 30Q181 -93 71 -155L61 -140Q101 -113 121 -81Z" />
<glyph unicode="&#x201c;" glyph-name="quotedblleft" horiz-adv-x="1024" d="M704 425T687 443T669 495Q669 618 779 680L789 665Q749 638 729 606T709 530L739 540Q762 540 778 524T794 485Q794 459 777 442T734 425Q704 425 687 443ZM884 425T867 443T849 495Q849
618 959 680L969 665Q929 638 909 606T889 530L919 540Q942 540 958 524T974 485Q974 459 957 442T914 425Q884 425 867 443Z" />
<glyph unicode="&#x201d;" glyph-name="quotedblright" horiz-adv-x="1024" d="M102 467T122 499T142 575L112 565Q89 565 73 581T57 620Q57 646 74 663T117 680Q147 680 164 662T182 610Q182 487 72 425L62 440Q102 467 122 499ZM282 467T302 499T322 575L292
565Q269 565 253 581T237 620Q237 646 254 663T297 680Q327 680 344 662T362 610Q362 487 252 425L242 440Q282 467 302 499Z" />
<glyph unicode="&#x201e;" glyph-name="quotedblbase" horiz-adv-x="417" d="M101 -113T121 -81T141 -5L111 -15Q88 -15 72 1T56 40Q56 66 73 83T116 100Q146 100 163 82T181 30Q181 -93 71 -155L61 -140Q101 -113 121 -81ZM281 -113T301 -81T321 -5L291 -15Q268
-15 252 1T236 40Q236 66 253 83T296 100Q326 100 343 82T361 30Q361 -93 251 -155L241 -140Q281 -113 301 -81Z" />
<glyph unicode="&#x2022;" glyph-name="bullet" horiz-adv-x="340" d="M117 210T84 243T50 330Q50 383 83 416T170 450Q223 450 256 417T290 330Q290 277 257 244T170 210Q117 210 84 243Z" />
</font>
</defs>
</svg>
